Gaming Clan
 
HomeCalendarFAQSearchMemberlistUsergroupsRegisterLog in

Share | 
 

  Bond of Silence

Go down 
AuthorMessage
KiZzamy
Admin


Posts : 71
Join date : 2010-09-11

PostSubject: Bond of Silence   Sat Sep 18, 2010 11:01 am




Quote:
A widow's forgiveness. A killer's remorse. Bond of Silence is the true life story of a shocking murder and the amazing bond that came from it. Katy and Bob live a perfect life in a small close knit town. He's a respected lawyer, a renowned tri-athlete. She just had twins. It is New Year's Eve. Teens converge on the house next door. Always the good neighbor, Bob goes to shut it down. A confrontation occurs. Then he's dead. No teen comes forward. The media pours in. Headlines scream. Katy hunts for answers. But no one talks. A bond of silence covers the town. The police do an undercover sting and someone's caught. Ryan, a popular kid, tries to be cool, but the burden of what he did that night is unbelievable. Ryan and his attorney want to plead not guilty, but then Katy and Ryan meet. Where Katy should be a grieving wife, she becomes a supportive mother. Rather than berating, she listens. Rather than accusing, she comforts. And Ryan tells her what happened. Step by step. When Ryan appears in court he pleads guilty. He turns to Katy. The look between them is one of compassion and shared loss. Katy pleads for leniency and makes a horrible ending be a hope-filled beginning.

Code: [Check Download Links]
-= [ Bond of Silence 2010 TVRip XviD-NoGRP ] =- [ http://www.imdb.com/title/tt1659192 ]Format : AVIFormat/Info : Audio Video InterleaveFile size : 697 MiBDuration : 1h 26mnOverall bit rate : 1 129 KbpsVideoID : 0Format : MPEG-4 VisualFormat profile : Advanced Simple@L5Format settings, BVOP : YesFormat settings, QPel : NoFormat settings, GMC : No warppointsFormat settings, Matrix : Default (H.263)Muxing mode : Packed bitstreamCodec ID : XVIDCodec ID/Hint : XviDDuration : 1h 26mnBit rate : 989 KbpsWidth : 624 pixelsHeight : 352 pixelsDisplay aspect ratio : 16:9Frame rate : 29.970 fpsResolution : 8 bitsColorimetry : 4:2:0Scan type : ProgressiveBits/(Pixel*Frame) : 0.150Stream size : 610 MiB (88%)Writing library : XviD 1.2.1 (UTC 2008-12-04)AudioID : 1Format : MPEG AudioFormat version : Version 1Format profile : Layer 3Mode : Joint stereoFormat_Settings_ModeExtension : MS StereoCodec ID : 55Codec ID/Hint : MP3Duration : 1h 26mnBit rate mode : VariableBit rate : 127 KbpsNominal bit rate : 148 KbpsChannel(s) : 2 channelsSampling rate : 48.0 KHzStream size : 78.2 MiB (11%)Alignment : Aligned on interleavesInterleave, duration : 24 ms (0.72 video frame)Interleave, preload duration : 572 msTitle : hdencodertox-pid2Writing library : LAME3.98r

Click this bar to view the full image.




Code: [Check Download Links]
http://www.fileserve.com/file/DZ8vUst/BndoSlnc.TVRip-NoGRP_Rapid4all.org.avi

Code: [Check Download Links]
http://rapidshare.com/files/419760218/BndoSlnc.TVRip-NoGRP_Rapid4all.org.part1.rarhttp://rapidshare.com/files/419760237/BndoSlnc.TVRip-NoGRP_Rapid4all.org.part2.rarhttp://rapidshare.com/files/419760202/BndoSlnc.TVRip-NoGRP_Rapid4all.org.part3.rarhttp://rapidshare.com/files/419760223/BndoSlnc.TVRip-NoGRP_Rapid4all.org.part4.rarhttp://rapidshare.com/files/419760305/BndoSlnc.TVRip-NoGRP_Rapid4all.org.part5.rarhttp://rapidshare.com/files/419760336/BndoSlnc.TVRip-NoGRP_Rapid4all.org.part6.rarhttp://rapidshare.com/files/419760258/BndoSlnc.TVRip-NoGRP_Rapid4all.org.part7.rar
Quote:
No Password | Single Extraction
Back to top Go down
View user profile http://sebiagaming.forumotion.com
 
Bond of Silence
Back to top 
Page 1 of 1
 Similar topics
-
» Have You Ever Heard Of A Boy Named Dunnery Bond?
» Psychic Bond

Permissions in this forum:You cannot reply to topics in this forum
Gaming Clan-CER :: Download Zona :: Moves-
Jump to: